<?xml version="1.0" standalone="no"?>
<!DOCTYPE svg PUBLIC "-//W3C//DTD SVG 1.1//EN" "http://www.w3.org/Graphics/SVG/1.1/DTD/svg11.dtd" >
<svg xmlns="http://www.w3.org/2000/svg">
<metadata></metadata>
<defs>
<font id="sansbookregular" horiz-adv-x="1617" >
<font-face units-per-em="2048" ascent="1638" descent="-410" />
<missing-glyph horiz-adv-x="614" />
<glyph horiz-adv-x="2048" />
<glyph horiz-adv-x="2048" />
<glyph unicode="&#xd;" horiz-adv-x="614" />
<glyph unicode=" "  horiz-adv-x="614" />
<glyph unicode="&#x09;" horiz-adv-x="614" />
<glyph unicode="&#xa0;" horiz-adv-x="614" />
<glyph unicode="!" horiz-adv-x="555" d="M184 0v215h189v-215h-189zM186 1434h185v-117l-49 -911h-89z" />
<glyph unicode="&#x22;" horiz-adv-x="901" d="M133 877l62 557h190v-11l-166 -546h-86zM532 877l64 557h188v-11l-166 -546h-86z" />
<glyph unicode="#" horiz-adv-x="1433" d="M92 362v142h248l76 434h-244v141h266l62 355h143l-59 -355h389l61 355h144l-60 -355h221v-141h-245l-76 -434h242v-142h-265l-63 -362h-144l62 362h-389l-64 -362h-143l61 362h-223zM485 504h389l74 434h-389z" />
<glyph unicode="$" horiz-adv-x="1302" d="M115 215l92 123q190 -172 397 -195v512q-201 47 -301 121q-135 100 -135 277v4q0 121 74 213q68 86 184 131q78 29 172 33v118h131v-122q203 -18 391 -164l-88 -123q-135 117 -309 147v-504q203 -45 303 -118q139 -102 139 -279v-4q0 -176 -135 -281q-119 -92 -301 -104 v-201h-131v205q-262 23 -483 211zM326 1063q0 -135 141 -201q53 -27 137 -47v481q-113 -4 -190 -59q-88 -63 -88 -170v-4zM723 137q117 6 195 62q90 66 90 176v4q0 137 -144 203q-55 25 -141 45v-490z" />
<glyph unicode="%" horiz-adv-x="1708" d="M106 1079v4q0 150 91.5 258.5t236.5 108.5q143 0 236 -113q86 -106 86 -250v-4q0 -147 -88 -254q-95 -112 -238 -112t-237 112q-86 104 -87 250zM244 1083q0 -166 116 -231q33 -21 74 -21q129 0 174 152q12 45 13 96v4q0 168 -117 234q-35 18 -74 18q-129 0 -172 -151 q-14 -45 -14 -97v-4zM254 0l1053 1434h145l-1051 -1434h-147zM952 346v4q0 147 91.5 257t234.5 110q145 0 235 -113q86 -104 86 -250v-4q0 -150 -90 -258t-235 -108q-143 0 -236 112q-86 106 -86 250zM1087 350q0 -166 117 -231q33 -21 74 -21q129 0 174 152q12 45 12 96v4 q0 168 -116 234q-35 18 -74 18q-129 0 -172 -151q-14 -45 -15 -97v-4z" />
<glyph unicode="&#x26;" horiz-adv-x="1425" d="M92 381v4q0 276 346 414q-143 168 -143 315v4q0 109 61.5 192t161.5 122q70 27 156 26q143 0 245.5 -92t102.5 -231v-5q0 -254 -338 -372l328 -334q94 139 172 319l133 -61q-104 -225 -207 -360l250 -256l-123 -95l-225 232q-207 -223 -469 -223q-197 0 -324 111.5 t-127 289.5zM256 387q0 -123 88 -196.5t211 -73.5q190 0 358 186l-383 395q-274 -102 -274 -307v-4zM451 1114q0 -92 75 -186q27 -35 68 -78q276 94 276 272v4q0 88 -57 143.5t-145 55.5q-94 0 -155.5 -57.5t-61.5 -149.5v-4z" />
<glyph unicode="'" horiz-adv-x="501" d="M133 877l62 557h192v-11l-166 -546h-88z" />
<glyph unicode="(" horiz-adv-x="888" d="M139 588q0 559 568 876l67 -104q-475 -301 -475 -772t475 -772l-67 -105q-567 317 -568 877z" />
<glyph unicode=")" horiz-adv-x="888" d="M115 -184q475 301 475 772t-475 772l67 104q567 -317 568 -876q0 -559 -568 -877z" />
<glyph unicode="*" horiz-adv-x="880" d="M141 1016l238 108l-238 111l56 94l211 -147l-21 256h107l-21 -256l211 147l55 -94l-237 -111l237 -108l-55 -96l-211 149l21 -256h-107l21 256l-211 -149z" />
<glyph unicode="+" horiz-adv-x="1310" d="M154 647v148h426v422h151v-422h426v-148h-426v-422h-151v422h-426z" />
<glyph unicode="," horiz-adv-x="501" d="M94 -178q150 55 137 178h-73v215h188v-184q0 -121 -54 -187.5t-173 -93.5z" />
<glyph unicode="-" horiz-adv-x="835" d="M133 532v166h569v-166h-569z" />
<glyph unicode="." horiz-adv-x="501" d="M158 0v215h188v-215h-188z" />
<glyph unicode="/" horiz-adv-x="1040" d="M-43 -262l950 1896h146l-951 -1896h-145z" />
<glyph unicode="0" horiz-adv-x="1464" d="M127 713v4q0 311 166 522q174 219 442 219q205 0 357 -131q141 -121 204 -321q41 -135 41 -285v-4q0 -309 -163 -520q-173 -222 -443 -222q-205 0 -358 131q-139 119 -203 322q-43 133 -43 285zM295 717q0 -168 59 -307q70 -160 199 -238q82 -49 182 -49q152 0 264 110 q96 98 142 256q29 106 28 224v4q0 168 -59 307q-68 160 -197 238q-82 49 -182 49q-152 0 -264 -111q-96 -98 -141 -254q-31 -106 -31 -225v-4z" />
<glyph unicode="1" horiz-adv-x="733" d="M57 1323l351 121h118v-1444h-159v1276l-271 -84z" />
<glyph unicode="2" horiz-adv-x="1226" d="M98 0v125l520 459q238 209 283 348q16 49 17 102q0 121 -84 198t-205 77q-125 0 -223 -72q-78 -55 -162 -174l-119 86q111 162 217 229q123 76 299 76q135 0 246.5 -63.5t165.5 -180.5q33 -74 32 -161v-5q0 -211 -198 -407q-51 -51 -164 -150l-383 -340h760v-147h-1002z " />
<glyph unicode="3" horiz-adv-x="1255" d="M102 231l117 105q174 -213 420 -213q211 0 289 164q25 51 24 114v5q0 199 -239 258q-74 18 -162 18h-92l-33 96l453 510h-701v146h916v-119l-451 -500q326 -29 434 -231q39 -74 39 -172v-4q0 -195 -145 -318q-137 -115 -334 -115q-338 0 -535 256z" />
<glyph unicode="4" horiz-adv-x="1374" d="M88 457l811 987h141v-969h224v-135h-224v-340h-155v340h-756zM283 475h602v739z" />
<glyph unicode="5" horiz-adv-x="1253" d="M109 203l106 116q201 -197 408 -196q156 0 251 91t95 226v4q0 143 -111 228q-100 74 -246 73q-152 0 -301 -81l-108 71l41 699h825v-150h-684l-31 -459q141 63 283 64q215 0 355.5 -119t140.5 -319v-5q0 -217 -152 -348q-143 -123 -360 -123q-285 0 -512 228z" />
<glyph unicode="6" horiz-adv-x="1325" d="M125 676v4q0 340 158 553q164 225 438 225q225 0 424 -164l-94 -125q-168 141 -338 142q-156 0 -260 -117q-90 -98 -131 -260q-29 -117 -29 -256q100 152 268 201q61 18 139 18q147 0 267 -63q127 -68 190 -195q39 -82 39 -182v-4q0 -211 -156 -349q-147 -129 -358 -129 q-231 0 -377 146q-135 135 -168 360q-12 84 -12 195zM322 440q0 -147 110 -237q105 -84 252 -84q240 0 322 200q25 59 24 127v5q0 141 -108 227q-98 80 -242 80q-109 0 -197 -51q-94 -53 -135 -146q-27 -57 -26 -117v-4z" />
<glyph unicode="7" horiz-adv-x="1220" d="M139 1286v148h973v-121l-651 -1313h-180l647 1286h-789z" />
<glyph unicode="8" horiz-adv-x="1290" d="M106 385v4q0 244 295 352q-246 113 -245 330v4q0 160 147 273q137 106 342 106t344 -106q145 -113 146 -273v-4q0 -217 -246 -330q295 -109 295 -350v-4q0 -141 -97 -244q-86 -90 -229 -133q-98 -30 -213 -30q-229 0 -384 112.5t-155 292.5zM270 389q0 -180 217 -246 q70 -22 158 -22q172 0 277 80q98 76 98 188v4q0 117 -108.5 195t-266.5 78q-104 0 -194 -37q-104 -45 -152 -125q-29 -51 -29 -111v-4zM317 1061q0 -178 201 -242q59 -20 127 -20q129 0 223 65q104 74 105 197v4q0 84 -60 147q-53 55 -137 82q-61 18 -131 19 q-223 0 -303 -148q-25 -47 -25 -100v-4z" />
<glyph unicode="9" horiz-adv-x="1325" d="M129 967v4q0 217 154 354q147 133 362 133q229 0 377 -147q178 -178 178 -555v-4q0 -344 -166 -560.5t-430 -216.5q-227 0 -442 177l94 124q174 -154 352 -153q193 0 314 178q117 172 112 451q-145 -229 -405 -230q-223 0 -361.5 126t-138.5 319zM295 975 q0 -145 106 -234q99 -79 246 -79q111 0 201 53t131 151q25 57 25 119v4q0 147 -113 240q-104 86 -252 86q-109 0 -196 -54.5t-124 -152.5q-25 -61 -24 -129v-4z" />
<glyph unicode=":" horiz-adv-x="522" d="M168 0v215h188v-215h-188zM168 844v215h188v-215h-188z" />
<glyph unicode=";" horiz-adv-x="522" d="M104 -178q150 55 138 178h-74v215h188v-184q0 -121 -54 -187.5t-173 -93.5zM168 844v215h188v-215h-188z" />
<glyph unicode="&#x3c;" horiz-adv-x="1310" d="M147 653v135l961 478v-158l-789 -385l789 -387v-160z" />
<glyph unicode="=" horiz-adv-x="1310" d="M184 406v151h942v-151h-942zM184 885v151h942v-151h-942z" />
<glyph unicode="&#x3e;" horiz-adv-x="1310" d="M203 176v158l788 385l-788 387v160l960 -478v-135z" />
<glyph unicode="?" horiz-adv-x="1099" d="M61 1214q197 238 482 238q205 0 331.5 -114.5t126.5 -290.5v-5q0 -184 -124 -290q-115 -98 -302 -125l-20 -221h-104l-31 331l10 11q168 4 272 61q135 76 136 227v4q0 125 -90 199q-84 68 -209 68q-211 0 -373 -193zM408 0v215h188v-215h-188z" />
<glyph unicode="@" horiz-adv-x="2007" d="M109 561q0 373 263 635t634 262q264 0 490 -135t335 -369q68 -147 67 -307q0 -242 -120 -381q-104 -121 -262 -121q-223 0 -287 172q-143 -172 -338 -172q-162 0 -264.5 106.5t-102.5 266.5q0 152 83 280t220 191q84 39 170 39q162 0 254 -106q27 -31 45 -64l27 141 l137 -18l-82 -465q-14 -82 -14 -125q0 -166 174 -166q190 0 262 234q25 80 25 188q0 289 -234 512q-242 229 -585 230q-254 0 -459 -137.5t-301 -368.5q-63 -152 -64 -322q0 -356 246 -592q240 -231 594 -231q272 0 510 139l33 -55q-254 -154 -543 -154q-387 0 -650 260 t-263 633zM672 528q0 -117 66.5 -186.5t183.5 -69.5q133 0 234 113t101 256q0 113 -70.5 186.5t-178.5 73.5q-102 0 -184.5 -63.5t-123.5 -161.5q-29 -68 -28 -148z" />
<glyph unicode="A" d="M80 0l653 1444h152l653 -1444h-174l-168 379h-780l-170 -379h-166zM479 524h654l-326 731z" />
<glyph unicode="B" horiz-adv-x="1478" d="M203 0v1434h610q250 0 375 -127q92 -94 92 -230v-4q0 -131 -72 -217q-59 -74 -155 -115q307 -90 307 -346v-4q0 -281 -307 -364q-96 -27 -213 -27h-637zM362 145h482q145 0 237 56q115 66 115 200v5q0 245 -378 245h-3h-453v-506zM362 795h424q141 0 228 57 q102 66 102 199v4q0 123 -102 184q-84 49 -215 49h-437v-493z" />
<glyph unicode="C" horiz-adv-x="1511" d="M139 713v4q0 313 209 527t516 214q266 0 449 -133q57 -43 110 -94l-110 -119q-211 197 -451 197q-244 0 -399.5 -173t-155.5 -415v-4q0 -180 86 -324q90 -150 250 -221q100 -47 219 -47q248 0 463 207l107 -105q-244 -252 -574 -252q-225 0 -403.5 121t-259.5 328 q-55 135 -56 289z" />
<glyph unicode="D" horiz-adv-x="1601" d="M203 0v1434h497q334 0 551 -205q211 -201 211 -508v-4q0 -322 -225 -522q-217 -195 -537 -195h-497zM365 150h335q268 0 435 161q160 158 159 402v4q0 256 -174 413q-166 154 -420 154h-335v-1134z" />
<glyph unicode="E" horiz-adv-x="1372" d="M203 0v1434h1036v-148h-874v-489h782v-148h-782v-502h884v-147h-1046z" />
<glyph unicode="F" horiz-adv-x="1343" d="M203 0v1434h1030v-150h-868v-512h776v-147h-776v-625h-162z" />
<glyph unicode="G" horiz-adv-x="1605" d="M139 713v4q0 311 207 526t512 215q252 0 426 -108q55 -37 109 -82l-105 -123q-182 164 -436 164q-238 0 -395 -179q-150 -172 -150 -409v-4q0 -260 155.5 -428t411.5 -168q236 0 414 143v357h-436v145h592v-571q-244 -220 -576 -220q-330 0 -532 215q-197 207 -197 523z " />
<glyph unicode="H" horiz-adv-x="1556" d="M203 0v1434h162v-637h827v637h162v-1434h-162v645h-827v-645h-162z" />
<glyph unicode="I" horiz-adv-x="595" d="M217 0v1434h162v-1434h-162z" />
<glyph unicode="J" horiz-adv-x="1132" d="M63 233l117 101q133 -205 328 -205q141 0 215 104q66 92 65 240v961h164v-959q0 -248 -131 -377q-120 -118 -315 -118q-287 0 -443 253z" />
<glyph unicode="K" horiz-adv-x="1472" d="M203 0v1434h162v-856l823 856h209l-615 -627l641 -807h-202l-551 694l-305 -309v-385h-162z" />
<glyph unicode="L" horiz-adv-x="1267" d="M203 0v1434h162v-1284h806v-150h-968z" />
<glyph unicode="M" horiz-adv-x="1777" d="M203 0v1434h164l522 -783l522 783h164v-1434h-162v1161l-522 -768h-8l-523 766v-1159h-157z" />
<glyph unicode="N" d="M203 0v1434h151l903 -1149v1149h158v-1434h-129l-926 1176v-1176h-157z" />
<glyph unicode="O" horiz-adv-x="1740" d="M139 713v4q0 305 203 520q211 221 530 221t529 -219q201 -213 201 -518q1 -1 1 -2t-1 -2q0 -305 -203 -518q-212 -224 -531 -224t-528 222q-201 211 -201 516zM307 717q0 -180 89 -325.5t251 -219.5q102 -47 225 -47q246 0 404 172t158 416v4q0 180 -89.5 325.5 t-248.5 219.5q-104 47 -228 47q-246 0 -403.5 -172t-157.5 -416v-4z" />
<glyph unicode="P" horiz-adv-x="1368" d="M203 0v1434h536q242 0 389.5 -122t147.5 -333v-4q0 -221 -166 -350q-156 -119 -397 -119h-348v-506h-162zM365 653h354q178 0 285.5 87t107.5 229v4q0 160 -117 241q-100 70 -268 70h-362v-631z" />
<glyph unicode="Q" horiz-adv-x="1740" d="M139 713v4q0 305 203 520q211 221 530 221t529 -219q201 -213 201 -518q2 -2 0 -4q0 -281 -172 -481l190 -158l-111 -121l-188 172q-197 -154 -453 -154q-319 0 -528 222q-201 211 -201 516zM307 717q0 -180 89 -325.5t251 -219.5q102 -47 225 -47q190 0 330 108 l-266 228l108 121l265 -240q125 160 125 371v4q0 180 -89.5 325.5t-248.5 219.5q-104 47 -228 47q-246 0 -403.5 -172t-157.5 -416v-4z" />
<glyph unicode="R" horiz-adv-x="1480" d="M203 0v1434h616q264 0 408 -144q111 -111 110 -282v-4q0 -174 -106.5 -281t-282.5 -137l441 -586h-199l-416 557h-409v-557h-162zM365 702h440q254 0 342 172q27 53 27 123v4q0 147 -115 222q-96 61 -252 61h-442v-582z" />
<glyph unicode="S" horiz-adv-x="1310" d="M109 209l100 119q223 -203 491 -203q127 0 215 57q104 66 105 187v4q0 152 -186 221q-63 23 -198.5 55.5t-201.5 57.5q-182 70 -239 198q-29 66 -29 154v4q0 129 80 227q76 90 203 135q86 29 188 29q283 0 504 -176l-94 -125q-190 156 -414 156q-121 0 -207 -54 q-98 -63 -98 -178v-4q0 -156 194 -225q68 -27 195 -53q211 -45 317 -121q150 -102 150 -285v-4q0 -137 -80 -235.5t-213 -141.5q-91 -28 -197 -28q-332 0 -585 229z" />
<glyph unicode="T" horiz-adv-x="1327" d="M100 1284v150h1127v-150h-482v-1284h-163v1284h-482z" />
<glyph unicode="U" horiz-adv-x="1554" d="M180 600v834h162v-824q0 -221 107 -348q115 -135 331 -135q215 0 328 131q104 123 104 342v834h162v-822q0 -307 -164 -475q-158 -160 -434 -160q-272 0 -430 160q-166 164 -166 463z" />
<glyph unicode="V" horiz-adv-x="1536" d="M80 1434h180l510 -1235l512 1235h174l-616 -1444h-144z" />
<glyph unicode="W" horiz-adv-x="2267" d="M92 1434h176l410 -1194l393 1198h133l393 -1198l410 1194h170l-512 -1444h-137l-393 1163l-396 -1163h-135z" />
<glyph unicode="X" horiz-adv-x="1484" d="M94 0l551 731l-530 703h190l440 -586l437 586h188l-530 -701l551 -733h-193l-459 616l-458 -616h-187z" />
<glyph unicode="Y" horiz-adv-x="1466" d="M55 1434h197l483 -717l488 717h188l-596 -865v-569h-164v567z" />
<glyph unicode="Z" horiz-adv-x="1419" d="M137 0v109l928 1179h-897v146h1118v-109l-930 -1180h930v-145h-1149z" />
<glyph unicode="[" horiz-adv-x="899" d="M193 -266v1700h585v-123h-436v-1454h436v-123h-585z" />
<glyph unicode="\" horiz-adv-x="1040" d="M-12 1634h145l950 -1896h-145z" />
<glyph unicode="]" horiz-adv-x="899" d="M121 -143h438v1454h-438v123h586v-1700h-586v123z" />
<glyph unicode="^" horiz-adv-x="1024" d="M133 1010l318 428h122l318 -428h-139l-242 315l-242 -315h-135z" />
<glyph unicode="_" horiz-adv-x="1228" d="M-4 -199h1237v-129h-1237v129z" />
<glyph unicode="`" horiz-adv-x="1024" d="M295 1440l164 76l194 -297h-127z" />
<glyph unicode="a" horiz-adv-x="1185" d="M96 307v4q0 168 125 257t328 89q166 0 323 -45v33q0 287 -313 287q-162 0 -321 -76l-48 129q195 90 385 90q215 0 334 -108.5t119 -319.5v-647h-156v158q-138 -181 -380 -181q-258 0 -361 187q-35 61 -35 143zM256 315q0 -100 86 -159q76 -52 180 -52q236 0 326 170 q27 51 26 115v98q-164 45 -309 45q-123 0 -205 -45q-104 -55 -104 -168v-4z" />
<glyph unicode="b" horiz-adv-x="1359" d="M176 0v1495h158v-649q115 166 272 217q59 18 133 18q201 0 348 -143q158 -156 158 -406v-4q0 -248 -155 -403q-148 -148 -351 -148q-199 0 -333 140q-41 41 -72 86v-203h-158zM328 528q0 -182 116.5 -295.5t266.5 -113.5q172 0 276 121q96 115 96 286v4q0 184 -108.5 297 t-263.5 113q-115 0 -210 -67.5t-141 -174.5q-32 -74 -32 -161v-5v-4z" />
<glyph unicode="c" horiz-adv-x="1169" d="M111 524v4q0 231 157.5 392t384.5 161q203 0 344 -114q43 -35 80 -74l-104 -111q-156 160 -322 160t-272.5 -122t-106.5 -288v-4q0 -172 111 -291.5t279 -119.5q176 0 323 157l100 -94q-182 -205 -432 -205q-168 0 -303 92.5t-198 245.5q-41 100 -41 211z" />
<glyph unicode="d" horiz-adv-x="1359" d="M115 526v4q0 250 157 406q150 145 349 145t335 -139q39 -41 70 -86v639h158v-1495h-158v213q-163 -236 -405 -236q-154 0 -278 86.5t-185 231.5q-43 100 -43 231zM276 528q0 -184 108.5 -296.5t264.5 -112.5q115 0 210 67.5t142 175.5q31 74 31 166v4q0 180 -116.5 294 t-266.5 114q-172 0 -276 -121q-96 -115 -97 -287v-4z" />
<glyph unicode="e" horiz-adv-x="1212" d="M111 528q0 166 79.5 304.5t225.5 205.5q92 43 202 43q233 0 369 -170q125 -156 125 -391v-22q0 -14 -2 -33h-840q16 -164 123 -258t250 -94q188 0 334 149l98 -88q-176 -199 -436 -199q-233 0 -383 164q-145 158 -145 389zM270 592h682q-12 154 -98 252q-92 104 -240 104 q-141 0 -239 -110q-88 -100 -105 -246z" />
<glyph unicode="f" horiz-adv-x="751" d="M90 920v137h146v92q0 164 79.5 259t239.5 95q102 0 174 -26v-138q-94 27 -154 27q-184 0 -184 -225v-86h336v-135h-334v-920h-157v920h-146z" />
<glyph unicode="g" horiz-adv-x="1359" d="M115 578v4q0 223 153 366q145 133 344 133q203 0 340 -131q41 -39 74 -82v191h158v-875q0 -240 -135 -374q-142 -142 -404 -142q-268 0 -481 148l72 123q190 -135 407 -136q182 0 283.5 97.5t101.5 279.5v125q-168 -223 -416 -223q-211 0 -354 143.5t-143 352.5zM276 582 q0 -154 106.5 -257.5t260.5 -103.5q158 0 273.5 102.5t115.5 256.5v4q0 156 -119 260q-115 98 -270 98q-158 0 -262.5 -100.5t-104.5 -255.5v-4z" />
<glyph unicode="h" horiz-adv-x="1261" d="M176 0v1495h158v-621q129 207 362 207q188 0 297 -116.5t109 -307.5v-657h-158v618q0 145 -72 230q-78 90 -221 90t-230 -94t-87 -238v-606h-158z" />
<glyph unicode="i" horiz-adv-x="538" d="M180 1290v174h180v-174h-180zM190 0v1059h158v-1059h-158z" />
<glyph unicode="j" horiz-adv-x="538" d="M-8 -195q27 -6 78 -6q121 0 120 142v1118h158v-1120q0 -273 -258 -273q-53 0 -98 10v129zM180 1290v174h180v-174h-180z" />
<glyph unicode="k" horiz-adv-x="1165" d="M176 0v1495h158v-1032l571 596h197l-445 -455l459 -604h-188l-379 494l-215 -218v-276h-158z" />
<glyph unicode="l" horiz-adv-x="538" d="M190 0v1495h158v-1495h-158z" />
<glyph unicode="m" horiz-adv-x="1947" d="M176 0v1059h158v-178q136 200 340 200h2q240 0 340 -211q141 211 373 211q190 0 294 -118q98 -115 99 -308v-655h-158v618q0 143 -63 228q-72 92 -211 92q-137 0 -215 -95t-78 -233v-610h-156v623q0 139 -65 223q-72 92 -207 92t-215 -99.5t-80 -234.5v-604h-158z" />
<glyph unicode="n" horiz-adv-x="1261" d="M176 0v1059h158v-185q129 207 362 207q188 0 297 -116.5t109 -307.5v-657h-158v618q0 145 -72 230q-78 90 -221 90t-230 -94t-87 -238v-606h-158z" />
<glyph unicode="o" horiz-adv-x="1323" d="M111 524v4q0 236 160.5 394.5t392.5 158.5q233 0 391.5 -159.5t158.5 -389.5v-4q0 -233 -162 -393t-393 -160t-389.5 160t-158.5 389zM272 528q0 -170 112 -290.5t280 -120.5q170 0 279.5 119.5t109.5 287.5v4q0 170 -113 292t-281 122q-170 0 -278.5 -120t-108.5 -290 v-4z" />
<glyph unicode="p" horiz-adv-x="1359" d="M176 -328v1387h158v-213q115 166 272 217q59 18 133 18q201 0 348 -143q158 -156 158 -406v-4q0 -248 -155 -403q-147 -147 -351 -148q-199 0 -333 140q-41 41 -72 86v-531h-158zM328 528q0 -182 116.5 -295.5t266.5 -113.5q172 0 276 121q96 115 96 286v4 q0 184 -108.5 297t-263.5 113q-115 0 -210 -67.5t-141 -174.5q-32 -74 -32 -161v-5v-4z" />
<glyph unicode="q" horiz-adv-x="1359" d="M115 526v4q0 250 157 406q150 145 349 145t335 -139q39 -41 70 -86v203h158v-1387h-158v541q-164 -236 -405 -236q-154 0 -278 86.5t-185 231.5q-43 100 -43 231zM276 528q0 -184 108.5 -296.5t264.5 -112.5q115 0 210 67.5t142 175.5q31 74 31 166v4q0 180 -116.5 294 t-266.5 114q-172 0 -276 -121q-96 -115 -97 -287v-4z" />
<glyph unicode="r" horiz-adv-x="829" d="M176 0v1059h158v-277q61 139 174 219q108 76 244 76h14v-170h-12q-203 0 -318 -147q-102 -133 -102 -338v-422h-158z" />
<glyph unicode="s" horiz-adv-x="1019" d="M88 135l80 113q178 -135 367 -135q88 0 149 39q70 45 70 129v4q0 72 -80 118q-51 29 -185 68q-168 49 -235 92q-115 76 -115 207v4q0 145 113 230q99 73 244 73h4q201 0 381 -116l-72 -119q-160 102 -313 102q-80 0 -138 -35q-68 -43 -67 -118v-5q0 -68 84 -112 q49 -29 188 -70q160 -49 230 -96q111 -78 110 -207v-4q0 -152 -117 -240q-104 -77 -260 -77q-242 0 -438 155z" />
<glyph unicode="t" horiz-adv-x="827" d="M84 920v139h147v319h158v-319h336v-139h-336v-619q0 -176 178 -176q80 0 154 37v-135q-82 -45 -191 -45q-299 0 -299 299v639h-147z" />
<glyph unicode="u" horiz-adv-x="1261" d="M160 401v658h157v-619q0 -145 72 -229q78 -90 221 -90t230.5 95t87.5 237v606h155v-1059h-155v184q-130 -207 -363 -207q-188 0 -296.5 117t-108.5 307z" />
<glyph unicode="v" horiz-adv-x="1202" d="M72 1059h174l356 -879l359 879h169l-460 -1067h-140z" />
<glyph unicode="w" horiz-adv-x="1763" d="M86 1059h168l278 -850l285 854h131l287 -854l278 850h164l-372 -1067h-138l-284 835l-287 -835h-139z" />
<glyph unicode="x" horiz-adv-x="1175" d="M80 0l416 539l-400 520h180l314 -410l313 410h176l-401 -516l418 -543h-183l-327 432l-330 -432h-176z" />
<glyph unicode="y" horiz-adv-x="1210" d="M70 1059h174l385 -883l340 883h168l-445 -1094q-121 -299 -352 -299q-119 0 -225 53l53 125q74 -39 166 -39q84 0 139 62q39 43 78 137z" />
<glyph unicode="z" horiz-adv-x="1138" d="M115 0v100l702 826h-678v133h893v-101l-704 -825h704v-133h-917z" />
<glyph unicode="{" horiz-adv-x="989" d="M115 526v123h53q129 0 185.5 58.5t56.5 187.5v35v43q-2 31 -2 45v33q0 174 84 262q102 106 360 151l25 -104q-205 -53 -267 -123q-53 -59 -53 -207q0 -27 2 -78v-75q0 -221 -213 -289q213 -68 213 -289v-76q-2 -51 -2 -78q0 -147 53 -206q66 -74 267 -123l-25 -105 q-258 45 -360 152q-84 88 -84 262v33q0 14 2 43v45v35q0 129 -57.5 187t-184.5 58h-53z" />
<glyph unicode="|" horiz-adv-x="620" d="M244 -262v1896h133v-1896h-133z" />
<glyph unicode="}" horiz-adv-x="989" d="M111 -184q203 49 270 123q51 59 51 206v78q-2 49 -2 76q0 221 213 289q-113 37 -163 103.5t-50 185.5q0 27 2 77v76q0 147 -51 207q-63 68 -270 123l26 104q260 -47 361 -151q84 -88 84 -262v-33v-45q-2 -29 -2 -43v-35q0 -129 55 -187.5t184 -58.5h53v-123h-53 q-129 0 -184 -58t-55 -187v-35q0 -14 2 -45v-43v-33q0 -174 -84 -262q-100 -104 -361 -152z" />
<glyph unicode="~" horiz-adv-x="968" d="M150 512q57 217 194 217q47 0 144.5 -42t129.5 -42q66 0 107 103l94 -27q-57 -217 -192 -217q-45 0 -145.5 42t-129.5 42q-66 0 -106 -103z" />
<glyph unicode="&#xa1;" horiz-adv-x="555" d="M184 1219v215h189v-215h-189zM186 0v117l47 911h89l49 -1028h-185z" />
<glyph unicode="&#xa2;" horiz-adv-x="1189" d="M119 723v4q0 229 158.5 391t384.5 162h26l31 166h133l-37 -184q145 -39 270 -172l-102 -107q-102 106 -201 137l-157 -803q10 -2 22 -2h21q178 0 325 158l99 -92q-180 -207 -433 -207h-26q-14 0 -29 2l-37 -188h-133l45 217q-164 59 -262 201.5t-98 316.5zM279 727 q0 -123 61 -227.5t172 -153.5l154 793h-9q-164 0 -271 -122t-107 -286v-4z" />
<glyph unicode="&#xa3;" horiz-adv-x="1318" d="M137 0v94l172 43v467h-172v141h172v222q0 236 129 364q123 123 324 123q270 0 438 -221l-125 -98q-133 170 -315 170q-125 0 -201 -76q-88 -88 -88 -262v-222h571v-141h-571v-461h727v-143h-1061z" />
<glyph unicode="&#xa4;" horiz-adv-x="1474" d="M115 485v129h166q-4 25 -5 50v53q0 66 9 119h-170v127h192q92 346 371 458q90 37 192 37q246 0 406 -168q47 -51 88 -112l-123 -88q-84 117 -160 163q-90 59 -217 60q-143 0 -252 -107q-94 -94 -139 -243h526v-127h-553q-8 -49 -8 -115v-4q0 -53 4 -103h557v-129h-530 q45 -162 147 -258q113 -106 271 -106q205 0 364 235l117 -82q-150 -219 -330 -276q-71 -23 -157 -23q-221 0 -381 150q-147 139 -199 360h-186z" />
<glyph unicode="&#xa5;" horiz-adv-x="1404" d="M55 1434h193l457 -701l460 701h185l-523 -762h373v-127h-420v-180h420v-127h-420v-238h-155v238h-420v127h420v180h-420v127h370z" />
<glyph unicode="&#xa7;" horiz-adv-x="1294" d="M127 733v4q0 188 270 234q-152 76 -151 207v4q0 139 125 213q102 59 252 59q279 0 469 -194l-103 -99q-162 158 -371 158q-211 0 -210 -135v-4q0 -57 70.5 -99.5t262.5 -89.5q233 -55 329.5 -119.5t96.5 -171.5v-4q0 -100 -88 -164q-72 -51 -182 -69q152 -76 152 -207v-4 q0 -139 -125 -213q-102 -59 -252 -59q-279 0 -469 194l102 98q162 -158 371 -157q211 0 211 135v4q0 59 -72 100q-78 45 -262 88q-231 53 -328.5 120t-97.5 171zM279 750q0 -55 61 -93q72 -47 229 -86q134 -32 224 -32q80 0 143 30q80 39 80 111v4q0 55 -60 94 q-74 45 -231 84q-135 33 -223 33q-80 0 -144 -31q-80 -39 -79 -110v-4z" />
<glyph unicode="&#xa8;" horiz-adv-x="1024" d="M240 1219v194h184v-194h-184zM600 1219v194h184v-194h-184z" />
<glyph unicode="&#xa9;" horiz-adv-x="1699" d="M109 713v4q0 309 219 525t524 216q309 0 524 -216t215 -521v-4q0 -309 -219 -525.5t-524 -216.5q-309 0 -524 216.5t-215 521.5zM176 713q0 -285 195.5 -479.5t476.5 -194.5q285 0 480.5 198.5t195.5 479.5v4q0 285 -195.5 479.5t-476.5 194.5q-285 0 -480.5 -199 t-195.5 -479v-4zM477 725v4q0 164 111.5 277.5t273.5 113.5t295 -123l-76 -82q-106 102 -221 103q-115 0 -191.5 -86t-76.5 -201v-4q0 -119 78 -204t192 -85q115 0 225 103l74 -72q-131 -135 -303 -135q-164 0 -272.5 114.5t-108.5 276.5z" />
<glyph unicode="&#xaa;" horiz-adv-x="798" d="M119 592v96h532v-96h-532zM125 1020v4q0 98 80 147q68 43 172 43q88 0 164 -22v10q0 145 -160 146q-78 0 -176 -45l-31 86q121 51 217 51q250 0 250 -238v-354h-100v78q-76 -90 -197 -90q-90 0 -151 47q-68 51 -68 137zM231 1024q0 -49 39 -75.5t92 -26.5 q70 0 124.5 37.5t54.5 105.5v49q-68 23 -156 23q-59 0 -102 -25q-51 -29 -52 -84v-4z" />
<glyph unicode="&#xab;" horiz-adv-x="1126" d="M98 522v17l332 436l121 -68l-277 -375l277 -378l-121 -70zM555 522v17l332 436l119 -68l-277 -375l277 -378l-119 -70z" />
<glyph unicode="&#xad;" horiz-adv-x="835" d="M133 532v166h569v-166h-569z" />
<glyph unicode="&#xae;" horiz-adv-x="1699" d="M109 713v4q0 309 219 525t524 216q309 0 524 -216t215 -521v-4q0 -309 -219 -525.5t-524 -216.5q-309 0 -524 216.5t-215 521.5zM176 713q0 -285 195.5 -479.5t476.5 -194.5q285 0 480.5 198.5t195.5 479.5v4q0 285 -195.5 479.5t-476.5 194.5q-285 0 -480.5 -199 t-195.5 -479v-4zM559 358v760h340q117 0 197 -55q90 -63 90 -172v-4q0 -176 -197 -223l236 -306h-140l-219 287h-194v-287h-113zM672 745h217q180 0 180 136v4q0 131 -174 131h-223v-271z" />
<glyph unicode="&#xaf;" horiz-adv-x="1024" d="M188 1229v137h648v-137h-648z" />
<glyph unicode="&#xb0;" horiz-adv-x="937" d="M147 1130v5q0 127 97.5 219t224.5 92t224.5 -93t97.5 -218v-5q0 -125 -98.5 -218t-223.5 -93t-223.5 93.5t-98.5 217.5zM266 1130q0 -84 59.5 -144t143.5 -60t143.5 60.5t59.5 143.5v5q0 84 -59.5 144t-143.5 60t-143.5 -60t-59.5 -144v-5z" />
<glyph unicode="&#xb1;" horiz-adv-x="1236" d="M88 233l119 103q168 -213 424 -213q221 0 299 156q25 49 24 110v4q0 141 -129 209q-98 51 -254 51h-147v140h151q233 0 316 153q25 49 24 111v4q0 121 -96 190q-84 59 -211 60q-217 0 -370 -205l-119 86q190 266 493 266q205 0 336 -108.5t131 -274.5v-4 q0 -188 -157 -289q-45 -29 -93 -47q205 -68 267 -219q23 -55 22 -123v-4q0 -135 -80 -234.5t-211 -146.5q-89 -33 -200 -33q-332 0 -539 258z" />
<glyph unicode="&#xb4;" horiz-adv-x="1024" d="M371 1219l194 297l164 -76l-231 -221h-127z" />
<glyph unicode="&#xb6;" horiz-adv-x="1044" d="M98 985v4q0 219 168 340q147 104 373 105h217v-1434h-164v541h-22q-254 0 -406 114q-166 123 -166 330z" />
<glyph unicode="&#xb7;" horiz-adv-x="501" d="M158 508v215h188v-215h-188z" />
<glyph unicode="&#xb8;" horiz-adv-x="1024" d="M307 -248l185 268h124l-155 -337z" />
<glyph unicode="&#xba;" horiz-adv-x="798" d="M98 1135v4q0 129 88 217t215 88t213 -88t86 -213v-4q0 -129 -88 -217t-215 -88t-213 88t-86 213zM104 592v96h590v-96h-590zM209 1139q0 -86 54 -146.5t138 -60.5t136.5 58.5t52.5 144.5v4q0 86 -54.5 146.5t-138.5 60.5t-136 -58.5t-52 -144.5v-4z" />
<glyph unicode="&#xbb;" horiz-adv-x="1126" d="M121 152l276 376l-276 377l119 70l331 -436v-17l-331 -438zM575 152l277 376l-277 377l121 70l332 -436v-17l-332 -438z" />
<glyph unicode="&#xbf;" horiz-adv-x="1099" d="M98 387v4q0 184 127 293q113 96 299 123l19 221h104l33 -332l-10 -10q-168 -4 -273 -61q-135 -76 -135 -228v-4q0 -125 90 -198q84 -68 209 -68q209 0 371 192l104 -100q-196 -237 -479 -237q-207 0 -333 114.5t-126 290.5zM504 1219v215h188v-215h-188z" />
<glyph unicode="&#xc0;" d="M80 0l653 1444h152l653 -1444h-174l-168 379h-780l-170 -379h-166zM479 524h654l-326 731zM512 1782l164 76l194 -297h-127z" />
<glyph unicode="&#xc1;" d="M80 0l653 1444h152l653 -1444h-174l-168 379h-780l-170 -379h-166zM479 524h654l-326 731zM748 1561l194 297l164 -76l-232 -221h-126z" />
<glyph unicode="&#xc2;" d="M80 0l653 1444h152l653 -1444h-174l-168 379h-780l-170 -379h-166zM479 524h654l-326 731zM522 1554l217 269h140l217 -269h-135l-154 138l-154 -138h-131z" />
<glyph unicode="&#xc3;" d="M80 0l653 1444h152l653 -1444h-174l-168 379h-780l-170 -379h-166zM473 1569q57 215 195 215q45 0 143 -41t131 -41q66 0 107 100l96 -26q-57 -215 -195 -215q-55 0 -146 40.5t-128 40.5q-66 0 -107 -100zM479 524h654l-326 731z" />
<glyph unicode="&#xc4;" d="M80 0l653 1444h152l653 -1444h-174l-168 379h-780l-170 -379h-166zM479 524h654l-326 731zM537 1561v194h184v-194h-184zM897 1561v194h184v-194h-184z" />
<glyph unicode="&#xc5;" d="M80 0l629 1393q-113 61 -113 176v4q0 82 64.5 142.5t148.5 60.5t148.5 -60.5t64.5 -142.5v-4q0 -115 -113 -176l629 -1393h-174l-168 379h-780l-170 -379h-166zM479 524h654l-326 731zM682 1569q0 -51 38 -88t89 -37t89 37t38 88v4q0 53 -37 89t-90 36t-90 -36t-37 -89 v-4z" />
<glyph unicode="&#xc6;" horiz-adv-x="2140" d="M35 0l842 1434h1130v-148h-838v-489h746v-148h-746v-502h848v-147h-1011v379h-578l-223 -379h-170zM510 524h496v766h-50z" />
<glyph unicode="&#xc7;" horiz-adv-x="1511" d="M139 713v4q0 313 209 527t516 214q266 0 449 -133q57 -43 110 -94l-110 -119q-211 197 -451 197q-244 0 -399.5 -173t-155.5 -415v-4q0 -180 86 -324q90 -150 250 -221q100 -47 219 -47q248 0 463 207l107 -105q-229 -238 -541 -252l-135 -292l-154 69l158 230 q-279 39 -451 247q-170 203 -170 484z" />
<glyph unicode="&#xc8;" horiz-adv-x="1372" d="M203 0v1434h1036v-148h-874v-489h782v-148h-782v-502h884v-147h-1046zM465 1782l164 76l194 -297h-127z" />
<glyph unicode="&#xc9;" horiz-adv-x="1372" d="M203 0v1434h1036v-148h-874v-489h782v-148h-782v-502h884v-147h-1046zM608 1561l195 297l164 -76l-232 -221h-127z" />
<glyph unicode="&#xca;" horiz-adv-x="1372" d="M203 0v1434h1036v-148h-874v-489h782v-148h-782v-502h884v-147h-1046zM426 1561l217 268h139l217 -268h-135l-153 137l-154 -137h-131z" />
<glyph unicode="&#xcb;" horiz-adv-x="1372" d="M203 0v1434h1036v-148h-874v-489h782v-148h-782v-502h884v-147h-1046zM440 1561v194h185v-194h-185zM801 1561v194h184v-194h-184z" />
<glyph unicode="&#xcc;" horiz-adv-x="595" d="M4 1782l164 76l194 -297h-126zM217 0v1434h162v-1434h-162z" />
<glyph unicode="&#xcd;" horiz-adv-x="595" d="M217 0v1434h162v-1434h-162zM233 1561l195 297l164 -76l-232 -221h-127z" />
<glyph unicode="&#xce;" horiz-adv-x="595" d="M12 1561l217 268h140l217 -268h-135l-154 137l-154 -137h-131zM217 0v1434h162v-1434h-162z" />
<glyph unicode="&#xcf;" horiz-adv-x="595" d="M27 1561v194h184v-194h-184zM217 0v1434h162v-1434h-162zM387 1561v194h184v-194h-184z" />
<glyph unicode="&#xd0;" horiz-adv-x="1662" d="M111 647v148h153v639h498q334 0 551 -205q211 -201 211 -508v-4q0 -322 -226 -522q-217 -195 -536 -195h-498v647h-153zM426 150h336q268 0 434 161q160 158 160 402v4q0 256 -174 413q-166 154 -420 154h-336v-489h430v-148h-430v-497z" />
<glyph unicode="&#xd1;" d="M203 0v1434h151l903 -1149v1149h158v-1434h-129l-926 1176v-1176h-157zM473 1569q57 215 195 215q45 0 143 -41t131 -41q66 0 107 100l96 -26q-57 -215 -195 -215q-55 0 -146 40.5t-128 40.5q-66 0 -107 -100z" />
<glyph unicode="&#xd2;" horiz-adv-x="1740" d="M139 713v4q0 305 203 520q211 221 530 221t529 -219q201 -213 201 -518q2 -2 0 -4q0 -305 -203 -518q-212 -224 -531 -224t-528 222q-201 211 -201 516zM307 717q0 -180 89 -325.5t251 -219.5q102 -47 225 -47q246 0 404 172t158 416v4q0 180 -89.5 325.5t-248.5 219.5 q-104 47 -228 47q-246 0 -403.5 -172t-157.5 -416v-4zM565 1782l164 76l195 -297h-127z" />
<glyph unicode="&#xd3;" horiz-adv-x="1740" d="M139 713v4q0 305 203 520q211 221 530 221t529 -219q201 -213 201 -518q2 -2 0 -4q0 -305 -203 -518q-212 -224 -531 -224t-528 222q-201 211 -201 516zM307 717q0 -180 89 -325.5t251 -219.5q102 -47 225 -47q246 0 404 172t158 416v4q0 180 -89.5 325.5t-248.5 219.5 q-104 47 -228 47q-246 0 -403.5 -172t-157.5 -416v-4zM817 1561l195 297l164 -76l-232 -221h-127z" />
<glyph unicode="&#xd4;" horiz-adv-x="1740" d="M139 713v4q0 305 203 520q211 221 530 221t529 -219q201 -213 201 -518q2 -2 0 -4q0 -305 -203 -518q-212 -224 -531 -224t-528 222q-201 211 -201 516zM307 717q0 -180 89 -325.5t251 -219.5q102 -47 225 -47q246 0 404 172t158 416v4q0 180 -89.5 325.5t-248.5 219.5 q-104 47 -228 47q-246 0 -403.5 -172t-157.5 -416v-4zM584 1561l217 268h139l217 -268h-135l-154 137l-153 -137h-131z" />
<glyph unicode="&#xd5;" horiz-adv-x="1740" d="M139 713v4q0 305 203 520q211 221 530 221t529 -219q201 -213 201 -518q2 -2 0 -4q0 -305 -203 -518q-212 -224 -531 -224t-528 222q-201 211 -201 516zM307 717q0 -180 89 -325.5t251 -219.5q102 -47 225 -47q246 0 404 172t158 416v4q0 180 -89.5 325.5t-248.5 219.5 q-104 47 -228 47q-246 0 -403.5 -172t-157.5 -416v-4zM535 1569q57 215 194 215q45 0 143.5 -41t131.5 -41q66 0 106 100l96 -26q-57 -215 -194 -215q-55 0 -146.5 40.5t-128.5 40.5q-66 0 -106 -100z" />
<glyph unicode="&#xd6;" horiz-adv-x="1740" d="M139 713v4q0 305 203 520q211 221 530 221t529 -219q201 -213 201 -518q2 -2 0 -4q0 -305 -203 -518q-212 -224 -531 -224t-528 222q-201 211 -201 516zM307 717q0 -180 89 -325.5t251 -219.5q102 -47 225 -47q246 0 404 172t158 416v4q0 180 -89.5 325.5t-248.5 219.5 q-104 47 -228 47q-246 0 -403.5 -172t-157.5 -416v-4zM598 1561v194h184v-194h-184zM958 1561v194h185v-194h-185z" />
<glyph unicode="&#xd8;" horiz-adv-x="1740" d="M123 -10l203 221q-186 207 -187 502v4q0 305 203 520q211 221 530 221q258 0 449 -151l127 137h170l-203 -221q186 -207 187 -502q2 -2 0 -4q0 -305 -203 -518q-212 -224 -531 -224q-260 0 -448 150l-127 -135h-170zM307 717q0 -219 129 -383l781 852q-147 125 -349 125 q-246 0 -405 -176q-156 -168 -156 -414v-4zM524 248q147 -125 348 -125q246 0 406 176q156 168 156 414v4q0 219 -129 383z" />
<glyph unicode="&#xd9;" horiz-adv-x="1554" d="M180 600v834h162v-824q0 -221 107 -348q115 -135 331 -135q215 0 328 131q104 123 104 342v834h162v-822q0 -307 -164 -475q-158 -160 -434 -160q-272 0 -430 160q-166 164 -166 463zM494 1772l163 75l195 -297h-127z" />
<glyph unicode="&#xda;" horiz-adv-x="1554" d="M180 600v834h162v-824q0 -221 107 -348q115 -135 331 -135q215 0 328 131q104 123 104 342v834h162v-822q0 -307 -164 -475q-158 -160 -434 -160q-272 0 -430 160q-166 164 -166 463zM702 1550l195 297l164 -75l-232 -222h-127z" />
<glyph unicode="&#xdb;" horiz-adv-x="1554" d="M180 600v834h162v-824q0 -221 107 -348q115 -135 331 -135q215 0 328 131q104 123 104 342v834h162v-822q0 -307 -164 -475q-158 -160 -434 -160q-272 0 -430 160q-166 164 -166 463zM489 1554l218 269h139l217 -269h-135l-154 138l-153 -138h-132z" />
<glyph unicode="&#xdc;" horiz-adv-x="1554" d="M180 600v834h162v-824q0 -221 107 -348q115 -135 331 -135q215 0 328 131q104 123 104 342v834h162v-822q0 -307 -164 -475q-158 -160 -434 -160q-272 0 -430 160q-166 164 -166 463zM504 1554v195h184v-195h-184zM864 1554v195h185v-195h-185z" />
<glyph unicode="&#xdd;" horiz-adv-x="1466" d="M55 1434h197l483 -717l488 717h188l-596 -865v-569h-164v567zM674 1550l194 297l164 -75l-231 -222h-127z" />
<glyph unicode="&#xde;" horiz-adv-x="1378" d="M203 0v1434h162v-246h374q242 0 389.5 -122t147.5 -333v-4q0 -223 -166 -352q-156 -119 -397 -119h-348v-258h-162zM365 406h354q117 0 211 43q111 49 155 145q27 57 27 129v4q0 160 -117 242q-100 70 -268 69h-362v-632z" />
<glyph unicode="&#xdf;" horiz-adv-x="1269" d="M176 0v1026q0 217 126 350t339 133q129 0 231 -53q113 -59 162 -170q29 -68 29 -145v-4q0 -127 -84 -230q-76 -92 -201 -145q373 -86 373 -365v-4q0 -289 -324 -373q-102 -27 -229 -24v127q160 4 260 57q131 70 131 213v4q0 240 -391 281v117q147 57 217 127 q86 90 86 204v4q0 113 -76.5 176.5t-191.5 63.5q-141 0 -223 -102q-76 -94 -76 -240v-1028h-158z" />
<glyph unicode="&#xe0;" horiz-adv-x="1185" d="M96 307v4q0 168 125 257t328 89q166 0 323 -45v33q0 287 -313 287q-162 0 -321 -76l-48 129q195 90 385 90q215 0 334 -108.5t119 -319.5v-647h-156v158q-138 -181 -380 -181q-258 0 -361 187q-35 61 -35 143zM256 315q0 -100 86 -159q76 -52 180 -52q236 0 326 170 q27 51 26 115v98q-164 45 -309 45q-123 0 -205 -45q-104 -55 -104 -168v-4zM303 1440l164 76l195 -297h-127z" />
<glyph unicode="&#xe1;" horiz-adv-x="1185" d="M96 307v4q0 168 125 257t328 89q166 0 323 -45v33q0 287 -313 287q-162 0 -321 -76l-48 129q195 90 385 90q215 0 334 -108.5t119 -319.5v-647h-156v158q-138 -181 -380 -181q-258 0 -361 187q-35 61 -35 143zM256 315q0 -100 86 -159q76 -52 180 -52q236 0 326 170 q27 51 26 115v98q-164 45 -309 45q-123 0 -205 -45q-104 -55 -104 -168v-4zM508 1219l194 297l164 -76l-231 -221h-127z" />
<glyph unicode="&#xe2;" horiz-adv-x="1185" d="M96 307v4q0 168 125 257t328 89q166 0 323 -45v33q0 287 -313 287q-162 0 -321 -76l-48 129q195 90 385 90q215 0 334 -108.5t119 -319.5v-647h-156v158q-138 -181 -380 -181q-258 0 -361 187q-35 61 -35 143zM256 315q0 -100 86 -159q76 -52 180 -52q236 0 326 170 q27 51 26 115v98q-164 45 -309 45q-123 0 -205 -45q-104 -55 -104 -168v-4zM309 1219l217 268h140l217 -268h-135l-154 137l-154 -137h-131z" />
<glyph unicode="&#xe3;" horiz-adv-x="1185" d="M96 307v4q0 168 125 257t328 89q166 0 323 -45v33q0 287 -313 287q-162 0 -321 -76l-48 129q195 90 385 90q215 0 334 -108.5t119 -319.5v-647h-156v158q-138 -181 -380 -181q-258 0 -361 187q-35 61 -35 143zM256 315q0 -100 86 -159q76 -52 180 -52q236 0 326 170 q27 51 26 115v98q-164 45 -309 45q-123 0 -205 -45q-104 -55 -104 -168v-4zM262 1227q57 215 195 215q45 0 143 -41t131 -41q66 0 107 100l96 -26q-57 -215 -195 -215q-55 0 -146 40.5t-128 40.5q-66 0 -107 -100z" />
<glyph unicode="&#xe4;" horiz-adv-x="1185" d="M96 307v4q0 168 125 257t328 89q166 0 323 -45v33q0 287 -313 287q-162 0 -321 -76l-48 129q195 90 385 90q215 0 334 -108.5t119 -319.5v-647h-156v158q-138 -181 -380 -181q-258 0 -361 187q-35 61 -35 143zM256 315q0 -100 86 -159q76 -52 180 -52q236 0 326 170 q27 51 26 115v98q-164 45 -309 45q-123 0 -205 -45q-104 -55 -104 -168v-4zM324 1219v194h184v-194h-184zM684 1219v194h184v-194h-184z" />
<glyph unicode="&#xe5;" horiz-adv-x="1185" d="M96 307v4q0 168 125 257t328 89q166 0 323 -45v33q0 287 -313 287q-162 0 -321 -76l-48 129q195 90 385 90q215 0 334 -108.5t119 -319.5v-647h-156v158q-138 -181 -380 -181q-258 0 -361 187q-35 61 -35 143zM256 315q0 -100 86 -159q76 -52 180 -52q236 0 326 170 q27 51 26 115v98q-164 45 -309 45q-123 0 -205 -45q-104 -55 -104 -168v-4zM383 1417v4q0 82 64.5 142.5t148.5 60.5t148.5 -60.5t64.5 -142.5v-4q0 -82 -64.5 -142.5t-148.5 -60.5t-148.5 60.5t-64.5 142.5zM469 1417q0 -51 38 -88t89 -37t89 37t38 88v4q0 53 -37 89 t-90 36t-90 -35.5t-37 -89.5v-4z" />
<glyph unicode="&#xe6;" horiz-adv-x="1951" d="M96 307v4q0 178 142 269q119 78 303 77q141 0 313 -45v33q0 287 -303 287q-154 0 -313 -76l-48 129q195 90 377 90q305 0 387 -229q141 236 406 235q233 0 369 -170q123 -156 122 -391v-22q0 -14 -2 -33h-839q16 -164 122.5 -258t249.5 -94q188 0 334 149l99 -88 q-176 -199 -437 -199q-268 0 -420 213q-211 -211 -475 -211q-158 0 -268 86q-119 92 -119 244zM256 315q0 -98 82 -157q74 -54 176 -54q184 0 307 113q37 35 74 76q-37 92 -43 199q-147 41 -295 40q-121 0 -201 -45q-100 -57 -100 -168v-4zM1010 592h682q-12 154 -99 252 q-92 104 -239 104q-141 0 -240 -110q-88 -100 -104 -246z" />
<glyph unicode="&#xe7;" horiz-adv-x="1169" d="M111 524v4q0 231 157.5 392t384.5 161q203 0 344 -114q43 -35 80 -74l-104 -111q-156 160 -322 160t-272.5 -122t-106.5 -288v-4q0 -172 111 -291.5t279 -119.5q176 0 323 157l100 -94q-172 -190 -401 -205l-135 -292l-154 69l160 234q-195 33 -319.5 186.5t-124.5 351.5 z" />
<glyph unicode="&#xe8;" horiz-adv-x="1212" d="M111 528q0 166 79.5 304.5t225.5 205.5q92 43 202 43q233 0 369 -170q125 -156 125 -391v-22q0 -14 -2 -33h-840q16 -164 123 -258t250 -94q188 0 334 149l98 -88q-176 -199 -436 -199q-233 0 -383 164q-145 158 -145 389zM270 592h682q-12 154 -98 252q-92 104 -240 104 q-141 0 -239 -110q-88 -100 -105 -246zM334 1440l164 76l194 -297h-127z" />
<glyph unicode="&#xe9;" horiz-adv-x="1212" d="M111 528q0 166 79.5 304.5t225.5 205.5q92 43 202 43q233 0 369 -170q125 -156 125 -391v-22q0 -14 -2 -33h-840q16 -164 123 -258t250 -94q188 0 334 149l98 -88q-176 -199 -436 -199q-233 0 -383 164q-145 158 -145 389zM270 592h682q-12 154 -98 252q-92 104 -240 104 q-141 0 -239 -110q-88 -100 -105 -246zM520 1219l195 297l164 -76l-232 -221h-127z" />
<glyph unicode="&#xea;" horiz-adv-x="1212" d="M111 528q0 166 79.5 304.5t225.5 205.5q92 43 202 43q233 0 369 -170q125 -156 125 -391v-22q0 -14 -2 -33h-840q16 -164 123 -258t250 -94q188 0 334 149l98 -88q-176 -199 -436 -199q-233 0 -383 164q-145 158 -145 389zM270 592h682q-12 154 -98 252q-92 104 -240 104 q-141 0 -239 -110q-88 -100 -105 -246zM326 1219l217 268h139l217 -268h-135l-154 137l-153 -137h-131z" />
<glyph unicode="&#xeb;" horiz-adv-x="1212" d="M111 528q0 166 79.5 304.5t225.5 205.5q92 43 202 43q233 0 369 -170q125 -156 125 -391v-22q0 -14 -2 -33h-840q16 -164 123 -258t250 -94q188 0 334 149l98 -88q-176 -199 -436 -199q-233 0 -383 164q-145 158 -145 389zM270 592h682q-12 154 -98 252q-92 104 -240 104 q-141 0 -239 -110q-88 -100 -105 -246zM340 1219v194h184v-194h-184zM700 1219v194h185v-194h-185z" />
<glyph unicode="&#xec;" horiz-adv-x="538" d="M-23 1440l164 76l195 -297h-127zM190 0v1059h158v-1059h-158z" />
<glyph unicode="&#xed;" horiz-adv-x="538" d="M190 0v1059h158v-1059h-158zM205 1219l194 297l164 -76l-231 -221h-127z" />
<glyph unicode="&#xee;" horiz-adv-x="538" d="M-18 1219l217 268h139l217 -268h-135l-154 137l-153 -137h-131zM190 0v1059h158v-1059h-158z" />
<glyph unicode="&#xef;" horiz-adv-x="538" d="M-4 1219v194h184v-194h-184zM190 0v1059h158v-1059h-158zM356 1219v194h185v-194h-185z" />
<glyph unicode="&#xf0;" horiz-adv-x="1296" d="M111 502v4q0 154 78.5 276.5t220.5 178.5q88 35 186 34q170 0 332 -112l-269 377l-262 -130l-73 97l268 125l-103 143h189l53 -80l203 98l72 -96l-209 -96l207 -305q180 -266 180 -498v-4q0 -236 -157 -387.5t-388 -151.5q-223 0 -375.5 154t-152.5 373zM270 496 q0 -158 111.5 -269.5t267.5 -111.5q162 0 267.5 111.5t105.5 271.5v4q0 158 -115.5 263t-273.5 105q-252 0 -336 -225q-27 -68 -27 -145v-4z" />
<glyph unicode="&#xf1;" horiz-adv-x="1261" d="M176 0v1059h158v-185q129 207 362 207q188 0 297 -116.5t109 -307.5v-657h-158v618q0 145 -72 230q-78 90 -221 90t-230 -94t-87 -238v-606h-158zM303 1227q57 215 195 215q45 0 143 -41t131 -41q66 0 107 100l96 -26q-57 -215 -195 -215q-55 0 -146 40.5t-128 40.5 q-66 0 -107 -100z" />
<glyph unicode="&#xf2;" horiz-adv-x="1323" d="M111 524v4q0 236 160.5 394.5t392.5 158.5q233 0 391.5 -159.5t158.5 -389.5v-4q0 -233 -162 -393t-393 -160t-389.5 160t-158.5 389zM272 528q0 -170 112 -290.5t280 -120.5q170 0 279.5 119.5t109.5 287.5v4q0 170 -113 292t-281 122q-170 0 -278.5 -120t-108.5 -290 v-4zM367 1440l163 76l195 -297h-127z" />
<glyph unicode="&#xf3;" horiz-adv-x="1323" d="M111 524v4q0 236 160.5 394.5t392.5 158.5q233 0 391.5 -159.5t158.5 -389.5v-4q0 -233 -162 -393t-393 -160t-389.5 160t-158.5 389zM272 528q0 -170 112 -290.5t280 -120.5q170 0 279.5 119.5t109.5 287.5v4q0 170 -113 292t-281 122q-170 0 -278.5 -120t-108.5 -290 v-4zM600 1219l195 297l163 -76l-231 -221h-127z" />
<glyph unicode="&#xf4;" horiz-adv-x="1323" d="M111 524v4q0 236 160.5 394.5t392.5 158.5q233 0 391.5 -159.5t158.5 -389.5v-4q0 -233 -162 -393t-393 -160t-389.5 160t-158.5 389zM272 528q0 -170 112 -290.5t280 -120.5q170 0 279.5 119.5t109.5 287.5v4q0 170 -113 292t-281 122q-170 0 -278.5 -120t-108.5 -290 v-4zM375 1219l217 268h139l217 -268h-135l-154 137l-153 -137h-131z" />
<glyph unicode="&#xf5;" horiz-adv-x="1323" d="M111 524v4q0 236 160.5 394.5t392.5 158.5q233 0 391.5 -159.5t158.5 -389.5v-4q0 -233 -162 -393t-393 -160t-389.5 160t-158.5 389zM272 528q0 -170 112 -290.5t280 -120.5q170 0 279.5 119.5t109.5 287.5v4q0 170 -113 292t-281 122q-170 0 -278.5 -120t-108.5 -290 v-4zM326 1227q57 215 194 215q45 0 143.5 -41t131.5 -41q66 0 106 100l96 -26q-57 -215 -194 -215q-55 0 -146.5 40.5t-128.5 40.5q-66 0 -106 -100z" />
<glyph unicode="&#xf6;" horiz-adv-x="1323" d="M111 524v4q0 236 160.5 394.5t392.5 158.5q233 0 391.5 -159.5t158.5 -389.5v-4q0 -233 -162 -393t-393 -160t-389.5 160t-158.5 389zM272 528q0 -170 112 -290.5t280 -120.5q170 0 279.5 119.5t109.5 287.5v4q0 170 -113 292t-281 122q-170 0 -278.5 -120t-108.5 -290 v-4zM389 1219v194h184v-194h-184zM750 1219v194h184v-194h-184z" />
<glyph unicode="&#xf8;" horiz-adv-x="1323" d="M80 -10l162 174q-131 154 -131 360v4q0 236 160.5 394.5t392.5 158.5q195 0 329 -110l92 100h160l-74 -78q-31 -33 -90 -98q133 -150 133 -363v-4q0 -233 -162 -393t-393 -160q-186 0 -329 109l-92 -94h-158zM270 528q0 -137 78 -249l549 579q-102 86 -238 86 q-170 0 -279.5 -121t-109.5 -291v-4zM428 199q97 -84 236 -84q172 0 281.5 119.5t109.5 289.5v4q0 139 -80 250z" />
<glyph unicode="&#xf9;" horiz-adv-x="1261" d="M160 401v658h157v-619q0 -145 72 -229q78 -90 221 -90t230.5 95t87.5 237v606h155v-1059h-155v184q-130 -207 -363 -207q-188 0 -296.5 117t-108.5 307zM350 1432l164 75l195 -297h-127z" />
<glyph unicode="&#xfa;" horiz-adv-x="1261" d="M160 401v658h157v-619q0 -145 72 -229q78 -90 221 -90t230.5 95t87.5 237v606h155v-1059h-155v184q-130 -207 -363 -207q-188 0 -296.5 117t-108.5 307zM545 1210l194 297l164 -75l-231 -222h-127z" />
<glyph unicode="&#xfb;" horiz-adv-x="1261" d="M160 401v658h157v-619q0 -145 72 -229q78 -90 221 -90t230.5 95t87.5 237v606h155v-1059h-155v184q-130 -207 -363 -207q-188 0 -296.5 117t-108.5 307zM346 1219l217 268h139l218 -268h-136l-153 137l-154 -137h-131z" />
<glyph unicode="&#xfc;" horiz-adv-x="1261" d="M160 401v658h157v-619q0 -145 72 -229q78 -90 221 -90t230.5 95t87.5 237v606h155v-1059h-155v184q-130 -207 -363 -207q-188 0 -296.5 117t-108.5 307zM360 1219v194h185v-194h-185zM721 1219v194h184v-194h-184z" />
<glyph unicode="&#xfd;" horiz-adv-x="1210" d="M70 1059h174l385 -883l340 883h168l-445 -1094q-121 -299 -352 -299q-119 0 -225 53l53 125q74 -39 166 -39q84 0 139 62q39 43 78 137zM547 1210l194 297l164 -75l-231 -222h-127z" />
<glyph unicode="&#xfe;" horiz-adv-x="1359" d="M176 -328v1823h158v-649q115 166 272 217q59 18 133 18q201 0 348 -143q158 -156 158 -406v-4q0 -248 -155 -403q-147 -147 -351 -148q-199 0 -333 140q-41 41 -72 86v-531h-158zM328 528q0 -182 116.5 -295.5t266.5 -113.5q172 0 276 121q96 115 96 286v4 q0 184 -108.5 297t-263.5 113q-115 0 -210 -67.5t-141 -174.5q-33 -76 -32 -166v-4z" />
<glyph unicode="&#xff;" horiz-adv-x="1210" d="M70 1059h174l385 -883l340 883h168l-445 -1094q-121 -299 -352 -299q-119 0 -225 53l53 125q74 -39 166 -39q84 0 139 62q39 43 78 137zM334 1219v194h184v-194h-184zM694 1219v194h185v-194h-185z" />
<glyph unicode="&#x152;" horiz-adv-x="2316" d="M139 713v4q0 309 215 513t547 204h1282v-148h-837v-489h745v-148h-745v-502h847v-147h-1292q-334 0 -548 203t-214 510zM307 717q0 -256 174 -414q166 -154 420 -153h283v1134h-283q-268 0 -431 -159.5t-163 -403.5v-4z" />
<glyph unicode="&#x153;" horiz-adv-x="2148" d="M111 524v4q0 231 160.5 392t387.5 161q150 0 272 -74.5t191 -205.5q61 131 176 205.5t258 74.5q233 0 369 -170q123 -156 123 -391v-22q0 -14 -2 -33h-840q16 -164 123 -258t250 -94q188 0 334 149l98 -88q-172 -199 -434 -199q-147 0 -269 76t-188 209 q-70 -133 -193.5 -209t-273.5 -76q-227 0 -384.5 162t-157.5 387zM272 528q0 -170 112 -290.5t278 -120.5q168 0 278 123q106 117 107 284v4q0 170 -112 292t-278 122q-170 0 -277.5 -121t-107.5 -289v-4zM1206 592h682q-12 154 -98 252q-92 104 -240 104q-141 0 -239 -110 q-88 -100 -105 -246z" />
<glyph unicode="&#x178;" horiz-adv-x="1466" d="M55 1434h197l483 -717l488 717h188l-596 -865v-569h-164v567zM461 1554v195h184v-195h-184zM821 1554v195h185v-195h-185z" />
<glyph unicode="&#x2c6;" horiz-adv-x="1024" d="M225 1219l217 268h140l217 -268h-135l-154 137l-154 -137h-131z" />
<glyph unicode="&#x2dc;" horiz-adv-x="1024" d="M176 1227q57 215 195 215q45 0 143 -41t131 -41q66 0 107 100l96 -26q-57 -215 -195 -215q-55 0 -146 40.5t-128 40.5q-66 0 -107 -100z" />
<glyph unicode="&#x2000;" horiz-adv-x="929" />
<glyph unicode="&#x2001;" horiz-adv-x="1858" />
<glyph unicode="&#x2002;" horiz-adv-x="929" />
<glyph unicode="&#x2003;" horiz-adv-x="1858" />
<glyph unicode="&#x2004;" horiz-adv-x="619" />
<glyph unicode="&#x2005;" horiz-adv-x="464" />
<glyph unicode="&#x2006;" horiz-adv-x="309" />
<glyph unicode="&#x2007;" horiz-adv-x="309" />
<glyph unicode="&#x2008;" horiz-adv-x="232" />
<glyph unicode="&#x2009;" horiz-adv-x="371" />
<glyph unicode="&#x200a;" horiz-adv-x="103" />
<glyph unicode="&#x2010;" horiz-adv-x="835" d="M133 532v166h569v-166h-569z" />
<glyph unicode="&#x2011;" horiz-adv-x="835" d="M133 532v166h569v-166h-569z" />
<glyph unicode="&#x2012;" horiz-adv-x="835" d="M133 532v166h569v-166h-569z" />
<glyph unicode="&#x2013;" horiz-adv-x="1081" d="M133 537v157h815v-157h-815z" />
<glyph unicode="&#x2014;" horiz-adv-x="1839" d="M133 537v157h1573v-157h-1573z" />
<glyph unicode="&#x2018;" horiz-adv-x="501" d="M147 979v184q0 121 53.5 187.5t172.5 93.5l24 -72q-145 -53 -137 -178h76v-215h-189z" />
<glyph unicode="&#x2019;" horiz-adv-x="501" d="M104 1040q150 55 138 179h-74v215h188v-185q0 -121 -54 -187.5t-173 -92.5z" />
<glyph unicode="&#x201a;" horiz-adv-x="501" d="M94 -178q150 55 137 178h-73v215h188v-184q0 -121 -54 -187.5t-173 -93.5z" />
<glyph unicode="&#x201c;" horiz-adv-x="911" d="M147 979v184q0 121 53.5 187.5t172.5 93.5l24 -72q-145 -53 -137 -178h76v-215h-189zM557 979v184q0 121 53.5 187.5t171.5 93.5l25 -72q-145 -53 -137 -178h73v-215h-186z" />
<glyph unicode="&#x201d;" horiz-adv-x="911" d="M104 1040q150 55 138 179h-74v215h188v-185q0 -121 -54 -187.5t-173 -92.5zM514 1040q150 55 137 179h-73v215h186v-185q0 -121 -53.5 -187.5t-171.5 -92.5z" />
<glyph unicode="&#x201e;" horiz-adv-x="911" d="M94 -178q150 55 137 178h-73v215h188v-184q0 -121 -54 -187.5t-173 -93.5zM504 -178q150 55 137 178h-74v215h187v-184q0 -121 -53.5 -187.5t-172.5 -93.5z" />
<glyph unicode="&#x2022;" horiz-adv-x="978" d="M221 719v4q0 111 80 188.5t188 77.5q109 0 189 -80t80 -186v-4q0 -111 -79 -188.5t-190 -77.5t-189.5 77.5t-78.5 188.5z" />
<glyph unicode="&#x2026;" horiz-adv-x="1480" d="M158 0v211h182v-211h-182zM649 0v211h182v-211h-182zM1141 0v211h184v-211h-184z" />
<glyph unicode="&#x202f;" horiz-adv-x="371" />
<glyph unicode="&#x2039;" horiz-adv-x="671" d="M98 522v17l332 436l121 -68l-277 -375l277 -378l-121 -70z" />
<glyph unicode="&#x203a;" horiz-adv-x="671" d="M121 152l276 376l-276 377l119 70l331 -436v-17l-331 -438z" />
<glyph unicode="&#x205f;" horiz-adv-x="464" />
<glyph unicode="&#x2122;" horiz-adv-x="1413" d="M53 1348v86h496v-86h-203v-545h-90v545h-203zM688 803v631h96l226 -347l223 347h94v-631h-88v483l-225 -342h-13l-223 342v-483h-90z" />
<glyph unicode="&#x25fc;" horiz-adv-x="1054" d="M0 0v1055h1055v-1055h-1055z" />
</font>
</defs>
</svg>
